.::::. Our Community .::::.
If this is your first visit, be sure to check out the FAQ by clicking the link above. You may have to register before you can post: click the register link above to proceed. To start viewing messages, select the forum that you want to visit from the selection below.

[MULTI] Date Night (2010) TS XViD - IMAGiNE

View previous topic View next topic Go down

[MULTI] Date Night (2010) TS XViD - IMAGiNE

Post  Lakshman on Wed Apr 21, 2010 11:02 pm



Date Night (2010) TS XViD - IMAGiNE

Another Fine Release Brought to you from - IMAGiNE

********************************************************************************************************************
Date Night TS XViD - IMAGiNE
********************************************************************************************************************

Ripper ...........: IMAGiNE IMDB Rating.......:7.1/10
Video Codec.......: XViD Release Date......:09/04/10
Audio Codec.......:MP3 Theatre Date......:17/04/10
Audio Bitrate.....:128 Runtime.......:1h 22mn
Subtitles.........:ENG WHEN NEEDED Language..........:ENGLISH
Resolution...... 704 x 352 IMDb URL..........:http://www.imdb.com/title/tt1279935/



DETAILS:

Video
ID : 0
Format : MPEG-4 Visual
Format profile : Advanced Simple@L5
Format settings, BVOP : Yes
Format settings, QPel : No
Format settings, GMC : No warppoints
Format settings, Matrix : Default (MPEG)
Muxing mode : Packed bitstream
Codec ID : XVID
Codec ID/Hint : XviD
Duration : 1h 22mn
Bit rate : 2 254 Kbps
Width : 704 pixels
Height : 352 pixels
Display aspect ratio : 2.000
Frame rate : 25.000 fps
Resolution : 8 bits
Colorimetry : 4:2:0
Scan type : Progressive
Bits/(Pixel*Frame) : 0.364
Stream size : 1.29 GiB (94%)
Writing library : XviD 1.2.1 (UTC 2008-12-04)

Audio
ID : 1
Format : MPEG Audio
Format version : Version 1
Format profile : Layer 3
Codec ID : 55
Codec ID/Hint : MP3
Duration : 1h 22mn
Bit rate mode : Constant
Bit rate : 128 Kbps
Channel(s) : 2 channels
Sampling rate : 44.1 KHz
Stream size : 75.1 MiB (5%)
Alignment : Split accross interleaves
Interleave, duration : 40 ms (1.00 video frame)
Interleave, preload duration : 500 ms




Rapidshare Links :-
Code:

http://rapidshare.com/files/378466623/Date.Nite.Ts.Xvid.part1.rar
http://rapidshare.com/files/378466989/Date.Nite.Ts.Xvid.part2.rar
http://rapidshare.com/files/378466914/Date.Nite.Ts.Xvid.part3.rar
http://rapidshare.com/files/378467019/Date.Nite.Ts.Xvid.part4.rar
http://rapidshare.com/files/378467057/Date.Nite.Ts.Xvid.part5.rar
http://rapidshare.com/files/378468077/Date.Nite.Ts.Xvid.part6.rar
http://rapidshare.com/files/378467847/Date.Nite.Ts.Xvid.part7.rar
http://rapidshare.com/files/378467595/Date.Nite.Ts.Xvid.part8.rar

Hotfile Links :-
Code:

http://hotfile.com/dl/39097205/90e8700/Date.Nite.Ts.Xvid.part1.rar.html
http://hotfile.com/dl/39097219/8faa433/Date.Nite.Ts.Xvid.part2.rar.html
http://hotfile.com/dl/39097172/258194b/Date.Nite.Ts.Xvid.part3.rar.html
http://hotfile.com/dl/39097336/9052814/Date.Nite.Ts.Xvid.part4.rar.html
http://hotfile.com/dl/39097643/83eedda/Date.Nite.Ts.Xvid.part5.rar.html
http://hotfile.com/dl/39097602/06d7377/Date.Nite.Ts.Xvid.part6.rar.html
http://hotfile.com/dl/39097684/3f8a8da/Date.Nite.Ts.Xvid.part7.rar.html
http://hotfile.com/dl/39097500/730ddf0/Date.Nite.Ts.Xvid.part8.rar.html

Links Interchangeable !!


Lakshman
Administrator
Administrator

Posts : 74
Join date : 2009-10-22
Age : 26

View user profile http://ourcommunity.rforum.biz

Back to top Go down

View previous topic View next topic Back to top

- Similar topics

 
Permissions in this forum:
You cannot reply to topics in this forum